<?xml version="1.0" standalone="no"?>
<!DOCTYPE svg PUBLIC "-//W3C//DTD SVG 1.1//EN" "http://www.w3.org/Graphics/SVG/1.1/DTD/svg11.dtd">
<svg xmlns="http://www.w3.org/2000/svg">
<defs >
<font id="SairaCondensed" horiz-adv-x="433" ><font-face
    font-family="Saira Condensed"
    units-per-em="1000"
    panose-1="0 0 5 6 0 0 0 0 0 0"
    ascent="1135"
    descent="-439"
    alphabetic="0" />
<glyph unicode=" " glyph-name="space" horiz-adv-x="192" />
<glyph unicode="!" glyph-name="exclam" horiz-adv-x="209" d="M78 255T74 328Q65 540 65 579V688H147V579Q147 532 139 358L133 191H80Q78 255 74 328ZM65 0V90H147V0H65Z" />
<glyph unicode="&quot;" glyph-name="quotedbl" horiz-adv-x="294" d="M58 445L48 611V688H118V611L107 445H58ZM187 445L176 611V688H246V611L236 445H187Z" />
<glyph unicode="#" glyph-name="numbersign" horiz-adv-x="526" d="M255 0L287 194H166L135 0H78L109 194H44V249H119L148 432H70V487H157L190 688H247L215 487H335L368 688H425L392 487H462V432H383L353 249H436V194H343L313 0H255ZM326 432H205L175 249H297L326 432Z" />
<glyph unicode="$" glyph-name="dollar" horiz-adv-x="418" d="M184 68Q111 70 63 81V142Q120 130 198 130Q237 130 257 138T286 166T294 221Q294 260 290 277T276 299T243 308L150 322Q92 331 72 362T51 464Q51 545 84 579T184 618V696H241V619Q268 618 297 614T344
605V545Q317 550 281 553T219 557Q165 556 144 538T123 469Q123 434 127 418T142 396T174 386L270 372Q307 367 327 354T356 311T366 224Q366 145 336 110T241 69V-8H184V68Z" />
<glyph unicode="%" glyph-name="percent" horiz-adv-x="636" d="M109 311T87 326T58 380T50 503Q50 587 57 626T87 680T158 696Q207 696 229 681T258 626T265 503Q265 418 258 380T229 326T158 311Q109 311 87 326ZM125 0L459 688H511L177 0H125ZM185 356T195
364T209 401T213 503Q213 576 210 605T196 642T158 650Q131 650 120 642T106 605T102 503Q102 430 105 401T120 364T158 356Q185 356 195 364ZM430 -8T408 7T379 60T372 184Q372 268 379 307T408 361T479 377Q528 377 550 362T579 307T587 184Q587 100 580 61T550
7T479 -8Q430 -8 408 7ZM506 37T517 45T531 82T535 184Q535 257 532 286T517 323T479 331Q452 331 442 323T428 286T424 184Q424 111 427 82T441 45T479 37Q506 37 517 45Z" />
<glyph unicode="&amp;" glyph-name="ampersand" horiz-adv-x="529" d="M511 379V317H426V9Q392 2 347 -3T265 -8Q175 -8 129 14T66 76T49 184Q49 263 72 298T144 349V353Q97 368 76 405T54 515Q54 575 71 614T135 675T265 696Q300 696 345 691T424 678V620Q391
626 352 630T285 634Q215 634 182 622T137 584T126 505Q126 446 144 413T224 379H286V317H224Q180 317 158 302T128 260T121 184Q121 129 136 101T182 63T268 53Q318 53 355 61V379H511Z" />
<glyph unicode="&apos;" glyph-name="quotesingle" horiz-adv-x="166" d="M58 445L48 611V688H118V611L107 445H58Z" />
<glyph unicode="(" glyph-name="parenleft" horiz-adv-x="246" d="M126 -77T104 -28T72 94T62 297Q62 426 72 499T105 622T174 743H231Q190 674 172 631T143 511T132 297Q132 160 142 83T171 -37T231 -150H174Q126 -77 104 -28Z" />
<glyph unicode=")" glyph-name="parenright" horiz-adv-x="246" d="M56 -80T74 -37T103 83T114 297Q114 433 104 510T75 630T14 743H71Q118 671 140 622T173 500T184 297Q184 167 174 94T141 -27T71 -150H14Q56 -80 74 -37Z" />
<glyph unicode="*" glyph-name="asterisk" horiz-adv-x="406" d="M220 491L229 359H177L184 491L73 418L47 463L166 522L47 583L73 628L184 554L177 688H229L220 555L333 629L358 583L239 523L359 463L333 418L220 491Z" />
<glyph unicode="+" glyph-name="plus" horiz-adv-x="484" d="M212 73V223H62V283H212V432H271V283H422V223H271V73H212Z" />
<glyph unicode="," glyph-name="comma" horiz-adv-x="194" d="M59 -82T70 -77T84 -58T88 -17V0H55V90H138V8Q138 -45 131 -70T102 -106T36 -117V-82Q59 -82 70 -77Z" />
<glyph unicode="-" glyph-name="hyphen" horiz-adv-x="309" d="M57 253V318H252V253H57Z" />
<glyph unicode="." glyph-name="period" horiz-adv-x="194" d="M56 0V90H138V0H56Z" />
<glyph unicode="/" glyph-name="slash" horiz-adv-x="290" d="M17 -55L207 743H272L82 -55H17Z" />
<glyph unicode="0" glyph-name="zero" horiz-adv-x="484" d="M151 -8T113 18T64 113T53 344Q53 506 64 574T113 669T242 696Q335 696 373 670T421 577T431 344Q431 182 420 114T371 19T242 -8Q151 -8 113 18ZM299 58T320 73T349 143T356 344Q356 489 349 544T321
615T242 630Q184 630 163 615T135 545T128 344Q128 198 134 143T162 73T242 58Q299 58 320 73Z" />
<glyph unicode="1" glyph-name="one" horiz-adv-x="274" d="M124 0V597L28 549V619L145 688H199V0H124Z" />
<glyph unicode="2" glyph-name="two" horiz-adv-x="436" d="M119 66H390V0H46V79Q46 166 50 203T71 265T129 313Q164 335 259 391Q294 411 304 436T315 513Q315 563 306 587T273 621T202 630Q146 630 56 619V680Q86 687 132 691T221 696Q277 696 312 685T369 635T390
522Q390 465 382 431T355 375T303 334L160 251Q136 237 128 219Q122 206 121 184T119 116V66Z" />
<glyph unicode="3" glyph-name="three" horiz-adv-x="423" d="M148 -8T106 -4T30 8V69Q120 58 174 58Q219 58 245 67T284 103T298 184Q298 257 277 286T205 316H115V381H205Q246 381 269 407T292 505Q292 559 280 585T242 621T167 630Q138 630 101 627T33 618V680Q65
687 107 691T182 696Q252 696 292 678T350 620T368 515Q368 442 346 404T279 354V350Q326 339 349 302T373 184Q373 118 358 77T300 14T181 -8Q148 -8 106 -4Z" />
<glyph unicode="4" glyph-name="four" horiz-adv-x="468" d="M287 0V163H32V222L214 688H293L111 229H288L302 484H362V229H434V163H362V0H287Z" />
<glyph unicode="5" glyph-name="five" horiz-adv-x="439" d="M144 58T196 58Q248 58 275 71T312 114T322 202Q322 264 311 293T273 332T187 342Q132 342 59 328V688H361V622H130V398Q173 407 230 407Q300 407 336 386T384 323T397 211Q397 128 382 82T325 14T205
-8Q172 -8 130 -4T54 8V69Q144 58 196 58Z" />
<glyph unicode="6" glyph-name="six" horiz-adv-x="476" d="M194 -8T159 1T102 34T67 106Q59 133 56 187T53 337Q53 425 56 481T70 571Q89 640 132 668T263 696Q293 696 333 691T405 679V618Q335 630 276 630Q208 630 178 610T138 535T128 359H133Q146 381 175
395T264 409Q329 409 364 396T415 341T432 217Q432 127 418 80T366 13T250 -8Q194 -8 159 1ZM294 58T317 67T349 105T359 198Q359 268 351 297T320 335T244 344Q192 344 169 333T138 299T130 226Q130 152 140 117T173 70T244 58Q294 58 317 67Z" />
<glyph unicode="7" glyph-name="seven" horiz-adv-x="403" d="M88 0L294 622H25V688H373V629L168 0H88Z" />
<glyph unicode="8" glyph-name="eight" horiz-adv-x="490" d="M166 -8T124 12T66 74T50 184Q50 241 60 274T89 323T142 349V353Q96 364 75 402T54 515Q54 581 71 620T129 677T245 696Q319 696 360 678T418 620T435 515Q435 441 414 403T348 353V349Q381 339 400
323T430 274T440 184Q440 115 425 74T367 13T245 -8Q166 -8 124 12ZM293 380T317 390T350 427T360 505Q360 558 351 584T318 620T245 631Q196 631 172 621T139 584T130 505Q130 453 139 427T173 391T245 380Q293 380 317 390ZM294 57T318 66T354 103T365 185Q365
243 355 270T321 306T245 316Q194 316 170 307T135 270T125 185Q125 130 136 103T171 67T245 57Q294 57 318 66Z" />
<glyph unicode="9" glyph-name="nine" horiz-adv-x="476" d="M183 -8T143 -3T71 9V70Q141 58 200 58Q268 58 298 78T338 153T348 329H343Q330 307 301 293T212 279Q147 279 112 292T61 347T44 471Q44 561 58 608T111 675T226 696Q283 696 318 687T375 655T409
588Q417 555 420 500T423 351Q423 252 419 193T402 99Q380 40 337 16T213 -8Q183 -8 143 -3ZM284 344T307 355T338 389T346 462Q346 536 336 571T303 618T232 630Q182 630 159 621T127 583T118 490Q118 420 126 391T157 353T232 344Q284 344 307 355Z" />
<glyph unicode=":" glyph-name="colon" horiz-adv-x="194" d="M56 420V510H138V420H56ZM56 0V90H138V0H56Z" />
<glyph unicode=";" glyph-name="semicolon" horiz-adv-x="194" d="M56 420V510H138V420H56ZM59 -82T70 -77T84 -58T88 -17V0H55V90H138V8Q138 -45 131 -70T102 -106T36 -117V-82Q59 -82 70 -77Z" />
<glyph unicode="&lt;" glyph-name="less" horiz-adv-x="484" d="M422 66L63 218V287L422 440V377L129 253L422 129V66Z" />
<glyph unicode="=" glyph-name="equal" horiz-adv-x="484" d="M62 313V373H422V313H62ZM62 133V192H422V133H62Z" />
<glyph unicode="&gt;" glyph-name="greater" horiz-adv-x="484" d="M62 66V129L355 253L62 377V440L422 287V218L62 66Z" />
<glyph unicode="?" glyph-name="question" horiz-adv-x="361" d="M100 274Q100 311 106 331T124 362T158 384L178 394Q203 407 214 418T230 452T236 519Q236 564 229 587T201 620T137 630Q87 630 21 619V681Q54 688 92 692T160 696Q246 696 278 656T311 528Q311
460 298 419T245 356L225 347Q198 333 186 323T171 299T167 260V191H100V274ZM93 0V90H174V0H93Z" />
<glyph unicode="@" glyph-name="at" horiz-adv-x="683" d="M200 -108T145 -81T75 22T61 294Q61 491 75 566T144 668T341 696Q483 696 538 669T607 567T621 294Q621 189 612 144T585 87T525 75H419L415 133H410Q399 94 374 81T312 68Q255 68 230 95T205 195Q205
245 214 272T245 312T308 324Q344 324 412 320V350Q412 403 406 425T383 455T325 462Q305 462 274 460T227 454V506Q275 518 344 518Q401 518 429 503T467 453T477 352V115H533Q552 115 560 124T573 170T577 294Q577 449 572 514T543 610T464 649Q418 656 340 656Q273
656 229 652Q168 645 143 615T112 520T106 294Q106 130 113 64T150 -30T253 -65Q295 -67 342 -67Q445 -67 477 -64V-106Q447 -108 341 -108Q200 -108 145 -81ZM363 122T380 133T405 170T412 247V277H323Q299 277 288 272T273 250T268 199Q268 166 273 150T291 128T331
122Q363 122 380 133Z" />
<glyph unicode="A" glyph-name="A" horiz-adv-x="494" d="M399 0L351 191H140L93 0H18L198 688H296L476 0H399ZM248 597H243L158 257H333L248 597Z" />
<glyph unicode="B" glyph-name="B" horiz-adv-x="492" d="M70 688H279Q364 688 401 644T438 516Q438 445 414 406T336 354V350Q398 337 421 295T444 181Q444 97 408 49T275 0H70V688ZM311 382T337 411T363 502Q363 547 354 572T323 610T258 622H144V382H258Q311
382 337 411ZM323 66T345 94T368 190Q368 259 344 287T261 316H144V66H261Q323 66 345 94Z" />
<glyph unicode="C" glyph-name="C" horiz-adv-x="400" d="M346 -1T315 -4T255 -8Q165 -8 124 19T68 117T53 344Q53 498 67 569T123 668T255 696Q283 696 314 692T365 682V621Q309 630 271 630Q202 630 174 612T138 538T129 344Q129 206 137 150T174 76T271 58Q321
58 368 67V4Q346 -1 315 -4Z" />
<glyph unicode="D" glyph-name="D" horiz-adv-x="497" d="M70 688H234Q334 688 376 662T431 569T444 344Q444 187 432 120T377 26T234 0H70V688ZM231 66Q300 66 325 80T360 149T369 344Q369 484 360 538T325 607T231 622H144V66H231Z" />
<glyph unicode="E" glyph-name="E" d="M70 0V688H395V622H145V381H362V315H145V66H395V0H70Z" />
<glyph unicode="F" glyph-name="F" horiz-adv-x="408" d="M70 0V688H380V622H145V365H354V300H145V0H70Z" />
<glyph unicode="G" glyph-name="G" horiz-adv-x="483" d="M252 302V366H427V11Q392 3 347 -2T266 -8Q175 -8 131 18T70 118T53 344Q53 495 70 568T131 668T267 696Q307 696 352 690T425 677V615Q398 621 360 625T298 630Q217 630 185 615T141 543T129 344Q129
214 138 157T175 78T267 57Q319 57 354 65V302H252Z" />
<glyph unicode="H" glyph-name="H" horiz-adv-x="527" d="M383 0V313H144V0H70V688H144V381H383V688H457V0H383Z" />
<glyph unicode="I" glyph-name="I" horiz-adv-x="220" d="M73 0V688H148V0H73Z" />
<glyph unicode="J" glyph-name="J" horiz-adv-x="250" d="M67 65T84 74T106 113T110 237V688H185V256Q185 124 176 77T136 15T16 0V63Q67 65 84 74Z" />
<glyph unicode="K" glyph-name="K" horiz-adv-x="481" d="M384 0L222 316H145V0H70V688H145V382H222L384 688H465L284 353L467 0H384Z" />
<glyph unicode="L" glyph-name="L" horiz-adv-x="379" d="M70 0V688H145V68H367V0H70Z" />
<glyph unicode="M" glyph-name="M" horiz-adv-x="665" d="M522 0V557H518L365 0H297L145 557H141V0H70V688H178L330 129H336L489 688H595V0H522Z" />
<glyph unicode="N" glyph-name="N" horiz-adv-x="528" d="M383 0L146 529H142V0H70V688H149L382 168H386V688H458V0H383Z" />
<glyph unicode="O" glyph-name="O" horiz-adv-x="518" d="M161 -8T119 19T65 114T53 344Q53 505 65 573T119 669T259 696Q357 696 399 669T453 574T465 344Q465 183 453 115T399 19T259 -8Q161 -8 119 19ZM323 58T348 73T381 144T389 344Q389 488 381 544T348
615T259 630Q195 630 170 615T137 544T129 344Q129 200 137 144T170 73T259 58Q323 58 348 73Z" />
<glyph unicode="P" glyph-name="P" horiz-adv-x="465" d="M70 688H274Q344 688 379 661T424 589T435 472Q435 402 425 358T379 285T274 257H145V0H70V688ZM254 322Q302 322 324 338T353 384T360 472Q360 530 354 560T325 606T255 622H145V322H254Z" />
<glyph unicode="Q" glyph-name="Q" horiz-adv-x="518" d="M480 -112V-115H400L339 -3Q301 -8 259 -8Q161 -8 119 19T65 114T53 344Q53 505 65 573T119 669T259 696Q357 696 399 669T453 574T465 344Q465 239 461 180T444 82T404 23L480 -112ZM292 58T305 59L218
218H295L366 92Q380 116 384 171T389 344Q389 488 381 544T348 615T259 630Q195 630 170 615T137 544T129 344Q129 200 137 144T170 73T259 58Q292 58 305 59Z" />
<glyph unicode="R" glyph-name="R" horiz-adv-x="493" d="M374 0L288 277H274H145V0H70V688H280Q351 688 386 662T431 593T442 482Q442 407 427 359T360 290L453 0H374ZM308 342T331 357T360 400T367 482Q367 536 361 564T332 607T262 622H145V342H261Q308 342 331 357Z" />
<glyph unicode="S" glyph-name="S" horiz-adv-x="443" d="M132 -8T54 5V70Q89 65 131 62T202 58Q242 58 265 63T304 83Q318 96 322 121T327 188Q327 243 323 265T305 296T253 312L137 330Q95 337 74 358T47 414T40 505Q40 609 84 652T225 696Q318 696 377 680V618Q310
630 242 630Q199 630 174 623T136 600Q123 585 119 563T115 507Q115 461 119 441T135 412T175 399L287 381Q329 374 353 360T390 312Q402 283 402 197Q402 120 386 76T331 12T225 -8Q132 -8 54 5Z" />
<glyph unicode="T" glyph-name="T" horiz-adv-x="413" d="M169 0V620H16V688H397V620H244V0H169Z" />
<glyph unicode="U" glyph-name="U" horiz-adv-x="514" d="M449 688V299Q449 165 437 104T386 18T257 -8Q168 -8 128 17T76 104T64 299V688H139V265Q139 170 146 130T176 74T257 58Q314 58 337 74T367 130T374 265V688H449Z" />
<glyph unicode="V" glyph-name="V" horiz-adv-x="462" d="M182 0L10 688H88L229 99H235L376 688H451L280 0H182Z" />
<glyph unicode="W" glyph-name="W" horiz-adv-x="691" d="M459 0L349 559H345L236 0H142L14 688H91L190 109H195L306 688H390L502 109H508L605 688H680L552 0H459Z" />
<glyph unicode="X" glyph-name="X" horiz-adv-x="484" d="M383 0L243 282H237L98 0H17L194 346L19 688H103L241 411H246L384 688H465L290 348L467 0H383Z" />
<glyph unicode="Y" glyph-name="Y" d="M179 0V265L2 688H81L215 354H221L355 688H431L253 265V0H179Z" />
<glyph unicode="Z" glyph-name="Z" horiz-adv-x="424" d="M29 0V62L303 622H37V688H392V626L117 66H396V0H29Z" />
<glyph unicode="[" glyph-name="bracketleft" horiz-adv-x="251" d="M70 -150V743H223V690L137 686V-93L223 -97V-150H70Z" />
<glyph unicode="\" glyph-name="backslash" horiz-adv-x="290" d="M207 -55L17 743H83L272 -55H207Z" />
<glyph unicode="]" glyph-name="bracketright" horiz-adv-x="251" d="M28 -150V-97L114 -93V686L28 690V743H181V-150H28Z" />
<glyph unicode="^" glyph-name="asciicircum" horiz-adv-x="411" d="M303 476L206 696L108 476H46L172 750H239L365 476H303Z" />
<glyph unicode="_" glyph-name="underscore" horiz-adv-x="317" d="M0 -169V-110H317V-169H0Z" />
<glyph unicode="`" glyph-name="grave" horiz-adv-x="141" d="M83 602L6 738V743H81L135 607V602H83Z" />
<glyph unicode="a" glyph-name="a" horiz-adv-x="425" d="M96 -8T65 24T34 140Q34 198 45 230T84 277T162 291Q191 291 294 286V322Q294 385 286 412T255 448T180 457Q157 457 121 454T59 446V504Q124 518 200 518Q270 518 304 501T352 443T365 323V0H302L298
70H293Q278 23 245 8T166 -8Q96 -8 65 24ZM224 53T246 61T279 98Q294 138 294 205V238H180Q148 238 133 232T111 206T104 145Q104 106 110 87T135 61T189 53Q224 53 246 61Z" />
<glyph unicode="b" glyph-name="b" horiz-adv-x="450" d="M212 -8T181 8T135 70H129L125 0H63V743H134V448H139Q153 486 182 502T258 518Q317 518 348 496T391 418T403 255Q403 148 391 92T347 14T257 -8Q212 -8 181 8ZM279 56T298 69T325 122T332 255Q332 348
325 388T299 441T232 454Q196 454 175 440T146 396Q139 371 137 338T134 255Q134 204 136 173T145 117Q153 84 174 70T232 56Q279 56 298 69Z" />
<glyph unicode="c" glyph-name="c" horiz-adv-x="351" d="M297 -1T268 -4T210 -8Q136 -8 102 18T57 97T47 255Q47 360 59 414T106 493T208 518Q236 518 266 515T314 505V447Q271 457 224 457Q176 457 155 442T126 386T118 256Q118 165 125 124T155 68T225 53Q276
53 317 64V5Q297 -1 268 -4Z" />
<glyph unicode="d" glyph-name="d" horiz-adv-x="450" d="M133 -8T103 14T60 91T47 254Q47 361 59 417T101 495T191 518Q239 518 268 502T311 448H316V743H387V0H324L320 70H315Q301 24 270 8T192 -8Q133 -8 103 14ZM255 56T276 70T305 116Q312 142 314 174T316
263Q316 348 307 383Q299 422 278 438T216 454Q171 454 151 441T125 388T118 255Q118 162 125 122T151 69T218 56Q255 56 276 70Z" />
<glyph unicode="e" glyph-name="e" horiz-adv-x="428" d="M380 232H118Q118 151 125 116T157 67T240 53Q306 53 366 64V6Q343 0 303 -4T226 -8Q145 -8 108 15T59 92T47 254Q47 363 57 415T103 493T221 518Q297 518 330 494T371 419T380 255V232ZM173 458T152 446T125
400T118 285H312V297Q312 370 304 403T278 447T220 458Q173 458 152 446Z" />
<glyph unicode="f" glyph-name="f" horiz-adv-x="281" d="M94 449H20V510H94V596Q94 663 109 694T158 734T260 743V687Q219 687 200 682T173 660T165 609V510H260V449H165V0H94V449Z" />
<glyph unicode="g" glyph-name="g" horiz-adv-x="450" d="M130 -199T65 -192V-134Q143 -138 186 -138Q246 -138 272 -123T307 -71T316 50V65H311Q298 27 269 11T192 -5Q132 -5 102 17T59 94T47 256Q47 363 59 418T102 496T193 518Q238 518 269 502T315 439H320L324
510H387V74Q387 -36 375 -91T323 -173T199 -199Q130 -199 65 -192ZM255 58T276 73T305 121Q316 163 316 256Q316 304 315 333T307 384Q298 422 277 438T218 454Q171 454 152 441T125 389T118 256Q118 163 125 124T151 71T218 58Q255 58 276 73Z" />
<glyph unicode="h" glyph-name="h" horiz-adv-x="453" d="M322 298Q322 370 316 401T291 443T232 454Q186 454 165 432T139 373T134 265V0H63V743H134V449H139Q166 518 261 518Q317 518 345 499T383 438T393 323V0H322V298Z" />
<glyph unicode="i" glyph-name="i" horiz-adv-x="196" d="M61 660V743H136V660H61ZM63 0V510H134V0H63Z" />
<glyph unicode="j" glyph-name="j" horiz-adv-x="196" d="M61 660V743H136V660H61ZM-6 -137Q26 -137 40 -132T59 -116T63 -81V510H134V-61Q134 -122 121 -149T81 -185T-6 -193V-137Z" />
<glyph unicode="k" glyph-name="k" horiz-adv-x="408" d="M310 0L187 227H134V0H63V743H134V289H187L309 510H386L245 263L389 0H310Z" />
<glyph unicode="l" glyph-name="l" horiz-adv-x="196" d="M63 0V743H134V0H63Z" />
<glyph unicode="m" glyph-name="m" horiz-adv-x="689" d="M558 298Q558 370 552 401T530 443T476 454Q432 454 412 434T386 376T381 265V0H310V298Q310 371 305 402T283 443T229 454Q185 454 165 433T139 374T134 265V0H63V510H125L129 439H135Q147 476 174 497T255
518Q310 518 336 500T373 439H379Q391 477 420 497T502 518Q556 518 583 499T619 438T629 323V0H558V298Z" />
<glyph unicode="n" glyph-name="n" horiz-adv-x="453" d="M322 298Q322 370 316 401T291 443T232 454Q186 454 165 432T139 373T134 265V0H63V510H125L129 439H135Q147 477 176 497T261 518Q317 518 345 498T383 438T393 322V0H322V298Z" />
<glyph unicode="o" glyph-name="o" horiz-adv-x="439" d="M139 -8T104 13T58 86T47 255Q47 372 57 424T103 497T220 518Q301 518 336 497T382 424T392 255Q392 138 382 86T337 13T220 -8Q139 -8 104 13ZM270 53T290 67T316 119T321 255Q321 353 316 391T291 443T220
457Q169 457 149 443T124 391T118 255Q118 158 123 120T149 67T220 53Q270 53 290 67Z" />
<glyph unicode="p" glyph-name="p" horiz-adv-x="450" d="M63 510H125L129 439H135Q149 485 180 501T257 518Q316 518 347 496T390 419T403 256Q403 148 391 93T348 15T258 -8Q211 -8 182 8T139 62H134V-193H63V510ZM279 56T298 69T325 122T332 255Q332 348 325
388T299 441T232 454Q194 454 173 439T143 389Q137 365 136 334T134 255Q134 162 142 130Q151 89 172 73T232 56Q279 56 298 69Z" />
<glyph unicode="q" glyph-name="q" horiz-adv-x="450" d="M316 62H311Q297 24 268 8T191 -8Q132 -8 102 14T59 92T47 255Q47 363 59 418T102 496T192 518Q238 518 269 502T315 439H320L324 510H387V-193H316V62ZM256 56T277 72T307 124Q313 146 314 176T316 255Q316
306 314 337T305 395Q297 426 276 440T218 454Q171 454 152 441T125 388T118 255Q118 162 125 122T151 69T218 56Q256 56 277 72Z" />
<glyph unicode="r" glyph-name="r" horiz-adv-x="285" d="M63 510H125L129 415H135Q148 474 180 496T267 518V446Q215 446 186 424T146 359T134 242V0H63V510Z" />
<glyph unicode="s" glyph-name="s" horiz-adv-x="377" d="M153 -8T114 -5T50 4V63Q114 52 182 52Q220 52 239 62T264 90T270 139Q270 176 266 191T253 212T220 221L120 236Q72 243 55 272T38 369Q38 429 57 461T109 506T196 518Q227 518 262 514T318 504V446Q295
451 262 454T196 458Q149 458 128 441T107 374Q107 341 111 326T124 304T156 295L253 282Q285 278 303 266T331 224T340 141Q340 57 304 25T187 -8Q153 -8 114 -5Z" />
<glyph unicode="t" glyph-name="t" horiz-adv-x="273" d="M94 0V449H20V510H94V658H165V510H253V449H165V0H94Z" />
<glyph unicode="u" glyph-name="u" horiz-adv-x="453" d="M323 71H318Q306 33 277 13T192 -8Q136 -8 108 12T70 72T60 188V510H131V212Q131 139 137 108T162 67T221 56Q266 56 287 77T313 136T319 245V510H390V0H327L323 71Z" />
<glyph unicode="v" glyph-name="v" horiz-adv-x="405" d="M159 0L19 510H93L201 90H207L314 510H386L246 0H159Z" />
<glyph unicode="w" glyph-name="w" horiz-adv-x="612" d="M390 0L309 387H303L222 0H136L21 510H94L179 95H185L270 510H344L431 95H437L521 510H591L476 0H390Z" />
<glyph unicode="x" glyph-name="x" horiz-adv-x="411" d="M314 0L207 200H202L94 0H18L162 259L23 510H102L204 319H209L312 510H387L249 261L393 0H314Z" />
<glyph unicode="y" glyph-name="y" horiz-adv-x="453" d="M130 -199T75 -193V-135Q129 -138 192 -138Q250 -138 277 -121T311 -68T319 46V66H314Q302 33 274 14T191 -6Q134 -6 107 14T70 77T60 198V510H131V213Q131 141 137 110T161 68T221 58Q266 58 287 79T313
138T319 247V510H390V70Q390 -36 377 -91T325 -173T206 -199Q130 -199 75 -193Z" />
<glyph unicode="z" glyph-name="z" horiz-adv-x="373" d="M34 0V56L252 449H42V510H338V455L119 61H339V0H34Z" />
<glyph unicode="{" glyph-name="braceleft" horiz-adv-x="259" d="M153 -128T125 -76T97 34V150Q97 203 80 238T21 275V317Q63 318 80 353T97 442V558Q97 616 125 668T188 743H244Q210 709 188 662T165 566V446Q165 323 88 299V294Q165 270 165 146V27Q165 -21
187 -68T244 -150H188Q153 -128 125 -76Z" />
<glyph unicode="|" glyph-name="bar" horiz-adv-x="226" d="M80 -161V743H146V-161H80Z" />
<glyph unicode="}" glyph-name="braceright" horiz-adv-x="259" d="M48 -116T71 -69T94 27V146Q94 271 170 294V299Q94 322 94 446V566Q94 614 72 660T14 743H70Q105 721 133 669T161 558V442Q161 389 178 354T237 317V275Q161 274 161 150V34Q161 -24 133 -76T70
-150H14Q48 -116 71 -69Z" />
<glyph unicode="~" glyph-name="asciitilde" horiz-adv-x="438" d="M378 320T374 298T354 265T307 253Q285 253 263 259T208 277Q184 287 167 292T134 297Q115 297 109 286T103 242H59Q59 284 63 306T83 340T130 351Q150 351 169 346T206 335T230 327Q249 320
269 314T303 308Q323 308 328 319T334 362H378Q378 320 374 298Z" />
<glyph unicode="&#xa0;" glyph-name="uni00A0" horiz-adv-x="192" />
<glyph unicode="&#xa1;" glyph-name="exclamdown" horiz-adv-x="205" d="M62 420V510H143V420H62ZM61 -69Q61 -30 70 182Q74 255 76 319H129Q130 281 136 148Q144 -22 144 -69V-178H61V-69Z" />
<glyph unicode="&#xa2;" glyph-name="cent" horiz-adv-x="374" d="M189 68Q128 73 98 103T59 187T50 342Q50 444 61 500T102 585T189 617V696H247V618Q290 616 326 606V545Q279 555 233 555Q184 555 162 539T133 479T125 343Q125 249 132 206T162 147T234 130Q253
130 282 133T329 142V81Q289 69 247 68V-8H189V68Z" />
<glyph unicode="&#xa3;" glyph-name="sterling" horiz-adv-x="441" d="M397 66V0H41V66H96V324H41V389H96V433Q96 532 113 588T171 670T285 696Q311 696 340 692T389 683V621Q340 630 299 630Q267 630 246 626T211 609Q188 590 180 551T171 438V389H336V324H171V66H397Z" />
<glyph unicode="&#xa4;" glyph-name="currency" horiz-adv-x="561" d="M47 40L133 126Q117 153 112 202T107 346Q107 438 112 486T133 562L47 648L89 691L179 601Q212 616 280 616Q349 616 381 600L472 690L514 648L427 561Q442 533 447 485T452 346Q452 253 447
204T427 127L514 40L471 -2L381 89Q350 72 280 72Q211 72 180 88L90 -2L47 40ZM330 133T350 148T376 203T381 346Q381 447 376 486T351 541T280 556Q229 556 209 541T183 487T178 346Q178 243 183 203T208 148T280 133Q330 133 350 148Z" />
<glyph unicode="&#xa5;" glyph-name="yen" horiz-adv-x="476" d="M200 0V259H50V309H184L141 413H50V462H121L30 688H107L236 353H242L371 688H446L354 462H425V413H333L290 309H425V259H275V0H200Z" />
<glyph unicode="&#xa6;" glyph-name="brokenbar" horiz-adv-x="226" d="M80 390V743H146V390H80ZM80 -161V192H146V-161H80Z" />
<glyph unicode="&#xa7;" glyph-name="section" horiz-adv-x="508" d="M196 -171T158 -167T102 -157V-94Q121 -99 157 -102T228 -106Q286 -106 310 -88T335 -16Q335 16 331 32T316 55T285 71L160 113Q114 129 92 143T59 187T47 277Q47 344 66 381T132 430Q114 446
107 470T99 537Q99 628 142 662T272 696Q312 696 350 692T406 682V619Q388 624 352 627T280 630Q222 630 198 612T173 541Q173 509 177 493T192 470T225 454L347 412Q393 396 415 382T449 337T461 247Q461 180 442 143T376 94Q394 78 401 53T409 -12Q409 -104 366
-137T236 -171Q196 -171 158 -167ZM357 132T373 157T390 234Q390 272 386 292T373 321T350 335L208 383Q179 392 174 392Q151 392 135 367T118 289Q118 250 122 231T136 202T163 187L303 140Q329 132 334 132Q357 132 373 157Z" />
<glyph unicode="&#xa8;" glyph-name="dieresis" horiz-adv-x="288" d="M21 654V730H89V654H21ZM199 654V730H267V654H199Z" />
<glyph unicode="&#xa9;" glyph-name="copyright" horiz-adv-x="572" d="M179 -8T137 16T83 107T71 344Q71 513 82 580T137 671T286 696Q392 696 435 672T489 580T501 344Q501 174 490 107T436 16T286 -8Q179 -8 137 16ZM377 28T410 46T453 123T463 344Q463 505
454 564T411 642T286 660Q195 660 162 642T119 565T109 344Q109 182 118 123T161 46T286 28Q377 28 410 46ZM255 154T233 168T203 221T195 343Q195 426 203 464T233 518T304 533Q341 533 364 526V485Q339 490 313 490Q279 490 266 481T248 443T244 343Q244 272
248 244T265 206T313 197Q342 197 365 202V160Q335 154 304 154Q255 154 233 168Z" />
<glyph unicode="&#xaa;" glyph-name="ordfeminine" horiz-adv-x="328" d="M77 313T55 337T33 423Q33 485 52 508T125 532L192 530L219 529V553Q219 597 214 615T192 640T138 646Q100 646 50 638V685Q94 696 154 696Q205 696 231 683T266 641T276 553V318H224L220
361H216Q191 313 128 313Q77 313 55 337ZM170 362T185 370T210 397Q219 418 219 468V490H139Q108 490 98 478T88 426Q88 386 99 374T146 362Q170 362 185 370Z" />
<glyph unicode="&#xab;" glyph-name="guillemotleft" horiz-adv-x="362" d="M127 103L30 306L127 510H179L97 306L179 103H127ZM258 103L161 306L258 510H310L229 306L310 103H258Z" />
<glyph unicode="&#xac;" glyph-name="logicalnot" horiz-adv-x="483" d="M360 72V223H62V284H421V72H360Z" />
<glyph unicode="&#xad;" glyph-name="uni00AD" horiz-adv-x="309" d="M57 253V318H252V253H57Z" />
<glyph unicode="&#xae;" glyph-name="registered" horiz-adv-x="572" d="M392 696T435 672T489 580T501 344Q501 174 490 107T436 16T286 -8Q179 -8 137 16T83 107T71 344Q71 513 82 580T137 671T286 696Q392 696 435 672ZM377 28T410 46T453 123T463 344Q463
505 454 564T410 642T286 660Q195 660 162 642T119 565T109 344Q109 182 118 123T161 46T286 28Q377 28 410 46ZM390 376T382 350T347 312L396 157H346L301 303H298H237V157H189V529H302Q341 529 360 515T384 478T390 417Q390 376 382 350ZM313 346T324 353T338
375T341 417Q341 456 332 470T291 485H237V346H289Q313 346 324 353Z" />
<glyph unicode="&#xaf;" glyph-name="overscore" horiz-adv-x="309" d="M57 677V743H253V677H57Z" />
<glyph unicode="&#xb0;" glyph-name="degree" horiz-adv-x="314" d="M107 397T85 410T56 452T50 546Q50 611 56 640T84 683T157 696Q207 696 229 683T258 641T264 546Q264 482 258 453T230 410T157 397Q107 397 85 410ZM184 440T195 448T208 476T211 546Q211 596
209 615T195 643T157 652Q130 652 119 644T105 615T102 546Q102 497 104 477T118 449T157 440Q184 440 195 448Z" />
<glyph unicode="&#xb1;" glyph-name="plusminus" horiz-adv-x="484" d="M212 195V345H62V405H212V555H271V405H422V345H271V195H212ZM62 30V90H422V30H62Z" />
<glyph unicode="&#xb2;" glyph-name="uni00B2" horiz-adv-x="293" d="M100 365H245V317H48V365Q48 408 50 428T60 462T86 486Q124 509 162 531Q179 542 185 555T192 592Q192 626 181 637T137 648Q109 648 53 641V687Q105 696 148 696Q180 696 200 690T233 662T245
597Q245 553 234 531T195 492L122 449Q109 441 105 431T100 394V365Z" />
<glyph unicode="&#xb3;" glyph-name="uni00B3" horiz-adv-x="291" d="M90 309T46 318V363Q95 357 129 357Q161 357 175 369T189 418Q189 452 179 467T145 482H90V528H145Q164 528 175 540T186 587Q186 624 173 636T125 648Q98 648 47 640V686Q90 696 134 696Q192
696 215 673T239 593Q239 559 228 540T194 509V505Q218 496 230 476T242 417Q242 361 220 335T134 309Q90 309 46 318Z" />
<glyph unicode="&#xb4;" glyph-name="acute" horiz-adv-x="141" d="M6 602V607L60 743H135V738L58 602H6Z" />
<glyph unicode="&#xb5;" glyph-name="uni00B5" horiz-adv-x="456" d="M393 510V0H330L326 71H321Q309 33 280 13T197 -8Q161 -8 133 8V-190H63V510H134V212Q134 140 140 109T164 67T223 56Q269 56 290 77T316 136T322 245V510H393Z" />
<glyph unicode="&#xb6;" glyph-name="paragraph" d="M202 222Q121 222 89 238T47 298T38 454Q38 566 47 610T88 671T202 688H260V-144H202V222ZM309 -144V688H366V-144H309Z" />
<glyph unicode="&#xb7;" glyph-name="middot" horiz-adv-x="194" d="M56 254V344H138V254H56Z" />
<glyph unicode="&#xb8;" glyph-name="cedilla" horiz-adv-x="147" d="M18 -190V-185L80 8H129V3L88 -190H18Z" />
<glyph unicode="&#xb9;" glyph-name="uni00B9" horiz-adv-x="211" d="M97 317V624L44 598V648L111 688H150V317H97Z" />
<glyph unicode="&#xba;" glyph-name="ordmasculine" horiz-adv-x="341" d="M111 313T85 328T51 382T43 503Q43 587 51 625T85 680T171 696Q230 696 256 680T289 626T297 503Q297 420 290 382T256 329T171 313Q111 313 85 328ZM206 362T219 372T236 408T240 503Q240
572 237 599T219 637T171 647Q136 647 122 637T105 600T101 503Q101 435 104 409T122 372T171 362Q206 362 219 372Z" />
<glyph unicode="&#xbb;" glyph-name="guillemotright" horiz-adv-x="362" d="M52 103L133 306L52 510H104L201 306L104 103H52ZM183 103L265 306L183 510H235L332 306L235 103H183Z" />
<glyph unicode="&#xbc;" glyph-name="onequarter" horiz-adv-x="545" d="M97 317V624L45 598V648L112 688H150V317H97ZM61 0L393 688H446L113 0H61ZM410 0V80H270V119L365 373H420L326 127H411L421 265H463V127H501V80H463V0H410Z" />
<glyph unicode="&#xbd;" glyph-name="onehalf" horiz-adv-x="593" d="M97 317V624L45 598V648L112 688H150V317H97ZM393 688H446L113 0H61L393 688ZM396 48H541V0H345V48Q345 91 347 111T356 145T382 169Q420 192 458 214Q476 225 482 237T488 275Q488 309 477
320T434 331Q407 331 349 324V370Q401 379 445 379Q477 379 497 373T529 345T541 280Q541 236 530 214T492 175L419 133Q405 124 401 113T396 77V48Z" />
<glyph unicode="&#xbe;" glyph-name="threequarters" horiz-adv-x="606" d="M96 357T130 357Q162 357 176 369T190 418Q190 452 180 467T147 482H91V528H147Q166 528 176 540T187 587Q187 624 174 636T126 648Q100 648 49 640V686Q91 696 135 696Q193 696 216
673T240 593Q240 558 230 539T195 509V505Q219 496 231 476T243 417Q243 361 221 335T135 309Q90 309 47 318V363Q96 357 130 357ZM123 0L455 688H508L175 0H123ZM471 0V80H332V119L426 373H482L388 127H472L483 265H524V127H562V80H524V0H471Z" />
<glyph unicode="&#xbf;" glyph-name="questiondown" horiz-adv-x="323" d="M184 420V510H266V420H184ZM114 -186T81 -147T47 -18Q47 51 61 92T113 154L148 172Q177 187 184 200T191 250V319H259V236Q259 199 253 179T235 148T200 125L182 116Q157 103 145 92T128
58T122 -9Q122 -55 129 -77T157 -110T221 -120Q264 -120 337 -109V-171Q307 -178 268 -182T199 -186Q114 -186 81 -147Z" />
<glyph unicode="&#xc0;" glyph-name="Agrave" horiz-adv-x="494" d="M399 0L351 191H140L93 0H18L198 688H296L476 0H399ZM248 597H243L158 257H333L248 597ZM232 750L155 886V891H230L284 755V750H232Z" />
<glyph unicode="&#xc1;" glyph-name="Aacute" horiz-adv-x="494" d="M399 0L351 191H140L93 0H18L198 688H296L476 0H399ZM248 597H243L158 257H333L248 597ZM209 750V755L263 891H338V886L261 750H209Z" />
<glyph unicode="&#xc2;" glyph-name="Acircumflex" horiz-adv-x="494" d="M399 0L351 191H140L93 0H18L198 688H296L476 0H399ZM248 597H243L158 257H333L248 597ZM131 750V756L208 888H286L362 756V750H312L247 847L181 750H131Z" />
<glyph unicode="&#xc3;" glyph-name="Atilde" horiz-adv-x="494" d="M399 0L351 191H140L93 0H18L198 688H296L476 0H399ZM248 597H243L158 257H333L248 597ZM387 808T376 785T325 761Q305 761 286 767T240 784Q235 786 221 792T194 802T173 805Q158 805 154 794T150
750H106Q106 812 117 835T168 859Q187 859 207 853T255 835Q273 827 290 821T320 815Q335 815 339 826T343 870H387Q387 808 376 785Z" />
<glyph unicode="&#xc4;" glyph-name="Adieresis" horiz-adv-x="494" d="M399 0L351 191H140L93 0H18L198 688H296L476 0H399ZM248 597H243L158 257H333L248 597ZM124 775V851H192V775H124ZM302 775V851H370V775H302Z" />
<glyph unicode="&#xc5;" glyph-name="Aring" horiz-adv-x="494" d="M476 0H399L351 191H140L93 0H18L196 685Q162 691 153 711T144 777Q144 816 150 835T177 864T246 874Q293 874 315 865T343 836T350 777Q350 733 340 713T297 685L476 0ZM221 833T211 828T197
812T194 777Q194 752 197 741T210 726T246 721Q272 721 283 725T297 741T300 777Q300 801 297 812T283 828T246 833Q221 833 211 828ZM158 257H333L248 597H243L158 257Z" />
<glyph unicode="&#xc6;" glyph-name="AE" horiz-adv-x="681" d="M376 0L344 191H135L70 0H-5L239 688H643V622H349L389 380H609V315H400L441 66H643V0H376ZM280 596H275L159 257H334L280 596Z" />
<glyph unicode="&#xc7;" glyph-name="Ccedilla" horiz-adv-x="400" d="M321 58T368 67V4Q346 -1 315 -4T255 -8Q233 -8 223 -7L184 -190H114V-185L173 -1Q122 10 97 45T62 148T53 344Q53 498 67 569T123 668T255 696Q283 696 314 692T365 682V621Q309 630 271
630Q202 630 174 612T138 538T129 344Q129 206 137 150T174 76T271 58Q321 58 368 67Z" />
<glyph unicode="&#xc8;" glyph-name="Egrave" horiz-adv-x="432" d="M70 0V688H395V622H145V381H362V315H145V66H395V0H70ZM220 750L143 886V891H218L272 755V750H220Z" />
<glyph unicode="&#xc9;" glyph-name="Eacute" horiz-adv-x="432" d="M70 0V688H395V622H145V381H362V315H145V66H395V0H70ZM208 750V755L262 891H337V886L260 750H208Z" />
<glyph unicode="&#xca;" glyph-name="Ecircumflex" horiz-adv-x="432" d="M70 0V688H395V622H145V381H362V315H145V66H395V0H70ZM115 750V756L192 888H270L346 756V750H296L231 847L165 750H115Z" />
<glyph unicode="&#xcb;" glyph-name="Edieresis" horiz-adv-x="432" d="M70 0V688H395V622H145V381H362V315H145V66H395V0H70ZM110 774V850H178V774H110ZM288 774V850H356V774H288Z" />
<glyph unicode="&#xcc;" glyph-name="Igrave" horiz-adv-x="220" d="M73 0V688H148V0H73ZM97 750L20 886V891H95L149 755V750H97Z" />
<glyph unicode="&#xcd;" glyph-name="Iacute" horiz-adv-x="220" d="M73 0V688H148V0H73ZM73 749V754L127 890H202V885L125 749H73Z" />
<glyph unicode="&#xce;" glyph-name="Icircumflex" horiz-adv-x="220" d="M73 0V688H148V0H73ZM-6 750V756L71 888H149L225 756V750H175L110 847L44 750H-6Z" />
<glyph unicode="&#xcf;" glyph-name="Idieresis" horiz-adv-x="220" d="M73 0V688H148V0H73ZM244 774V850H312V774H244ZM422 774V850H490V774H422Z" />
<glyph unicode="&#xd0;" glyph-name="Eth" horiz-adv-x="497" d="M70 317H12V380H70V688H234Q334 688 376 662T431 569T444 344Q444 187 432 120T377 26T234 0H70V317ZM300 66T325 80T360 149T369 344Q369 484 360 538T325 607T231 622H144V380H248V317H144V66H231Q300
66 325 80Z" />
<glyph unicode="&#xd1;" glyph-name="Ntilde" horiz-adv-x="528" d="M383 0L146 529H142V0H70V688H149L382 168H386V688H458V0H383ZM405 809T394 786T343 762Q323 762 304 768T258 785Q253 787 239 793T212 803T191 806Q176 806 172 795T168 751H124Q124 813 135
836T186 860Q205 860 225 854T273 836Q291 828 308 822T338 816Q353 816 357 827T361 871H405Q405 809 394 786Z" />
<glyph unicode="&#xd2;" glyph-name="Ograve" horiz-adv-x="518" d="M161 -8T119 19T65 114T53 344Q53 505 65 573T119 669T259 696Q357 696 399 669T453 574T465 344Q465 183 453 115T399 19T259 -8Q161 -8 119 19ZM323 58T348 73T381 144T389 344Q389 488 381
544T348 615T259 630Q195 630 170 615T137 544T129 344Q129 200 137 144T170 73T259 58Q323 58 348 73ZM238 750L161 886V891H236L290 755V750H238Z" />
<glyph unicode="&#xd3;" glyph-name="Oacute" horiz-adv-x="518" d="M161 -8T119 19T65 114T53 344Q53 505 65 573T119 669T259 696Q357 696 399 669T453 574T465 344Q465 183 453 115T399 19T259 -8Q161 -8 119 19ZM323 58T348 73T381 144T389 344Q389 488 381
544T348 615T259 630Q195 630 170 615T137 544T129 344Q129 200 137 144T170 73T259 58Q323 58 348 73ZM225 750V755L279 891H354V886L277 750H225Z" />
<glyph unicode="&#xd4;" glyph-name="Ocircumflex" horiz-adv-x="518" d="M161 -8T119 19T65 114T53 344Q53 505 65 573T119 669T259 696Q357 696 399 669T453 574T465 344Q465 183 453 115T399 19T259 -8Q161 -8 119 19ZM323 58T348 73T381 144T389 344Q389 488
381 544T348 615T259 630Q195 630 170 615T137 544T129 344Q129 200 137 144T170 73T259 58Q323 58 348 73ZM143 750V756L220 888H298L374 756V750H324L259 847L193 750H143Z" />
<glyph unicode="&#xd5;" glyph-name="Otilde" horiz-adv-x="518" d="M161 -8T119 19T65 114T53 344Q53 505 65 573T119 669T259 696Q357 696 399 669T453 574T465 344Q465 183 453 115T399 19T259 -8Q161 -8 119 19ZM323 58T348 73T381 144T389 344Q389 488 381
544T348 615T259 630Q195 630 170 615T137 544T129 344Q129 200 137 144T170 73T259 58Q323 58 348 73ZM399 808T388 785T337 761Q317 761 298 767T252 784Q247 786 233 792T206 802T185 805Q170 805 166 794T162 750H118Q118 812 129 835T180 859Q199 859 219
853T267 835Q285 827 302 821T332 815Q347 815 351 826T355 870H399Q399 808 388 785Z" />
<glyph unicode="&#xd6;" glyph-name="Odieresis" horiz-adv-x="518" d="M161 -8T119 19T65 114T53 344Q53 505 65 573T119 669T259 696Q357 696 399 669T453 574T465 344Q465 183 453 115T399 19T259 -8Q161 -8 119 19ZM323 58T348 73T381 144T389 344Q389 488
381 544T348 615T259 630Q195 630 170 615T137 544T129 344Q129 200 137 144T170 73T259 58Q323 58 348 73ZM136 775V851H204V775H136ZM314 775V851H382V775H314Z" />
<glyph unicode="&#xd7;" glyph-name="multiply" horiz-adv-x="434" d="M217 210L104 97L62 139L175 252L61 366L104 408L217 294L331 408L373 365L259 252L373 139L330 97L217 210Z" />
<glyph unicode="&#xd8;" glyph-name="Oslash" horiz-adv-x="516" d="M449 614T457 549T465 344Q465 183 453 115T399 19T259 -8Q185 -8 144 6L118 -55H53L95 41Q68 75 61 141T53 344Q53 505 65 573T119 669T259 696Q333 696 372 682L398 743H463L422 648Q449 614
457 549ZM129 261T130 215T137 138L345 620Q331 626 312 628T259 630Q195 630 170 615T137 544T129 344Q129 261 130 215ZM323 58T348 73T381 144T389 344Q389 429 388 476T381 553L172 69Q185 62 204 60T259 58Q323 58 348 73Z" />
<glyph unicode="&#xd9;" glyph-name="Ugrave" horiz-adv-x="514" d="M449 688V299Q449 165 437 104T386 18T257 -8Q168 -8 128 17T76 104T64 299V688H139V265Q139 170 146 130T176 74T257 58Q314 58 337 74T367 130T374 265V688H449ZM242 750L165 886V891H240L294
755V750H242Z" />
<glyph unicode="&#xda;" glyph-name="Uacute" horiz-adv-x="514" d="M449 688V299Q449 165 437 104T386 18T257 -8Q168 -8 128 17T76 104T64 299V688H139V265Q139 170 146 130T176 74T257 58Q314 58 337 74T367 130T374 265V688H449ZM229 750V755L283 891H358V886L281
750H229Z" />
<glyph unicode="&#xdb;" glyph-name="Ucircumflex" horiz-adv-x="514" d="M449 688V299Q449 165 437 104T386 18T257 -8Q168 -8 128 17T76 104T64 299V688H139V265Q139 170 146 130T176 74T257 58Q314 58 337 74T367 130T374 265V688H449ZM141 750V756L218 888H296L372
756V750H322L257 847L191 750H141Z" />
<glyph unicode="&#xdc;" glyph-name="Udieresis" horiz-adv-x="514" d="M449 688V299Q449 165 437 104T386 18T257 -8Q168 -8 128 17T76 104T64 299V688H139V265Q139 170 146 130T176 74T257 58Q314 58 337 74T367 130T374 265V688H449ZM134 775V851H202V775H134ZM312
775V851H380V775H312Z" />
<glyph unicode="&#xdd;" glyph-name="Yacute" d="M179 0V265L2 688H81L215 354H221L355 688H431L253 265V0H179ZM191 750V755L245 891H320V886L243 750H191Z" />
<glyph unicode="&#xde;" glyph-name="Thorn" horiz-adv-x="465" d="M70 688H145V566H274Q345 566 380 539T425 467T435 350Q435 281 425 236T379 163T274 135H145V0H70V688ZM254 200Q302 200 324 216T353 262T360 350Q360 408 354 438T325 484T255 500H145V200H254Z" />
<glyph unicode="&#xdf;" glyph-name="germandbls" horiz-adv-x="464" d="M203 0V61H236Q288 61 309 71T337 117T344 239Q344 309 336 344T307 392T246 406H223V467H246Q298 467 318 492T338 577Q338 621 328 645T296 679T235 689Q196 689 175 678T143 638T133
556V0H63V556Q63 628 80 670T134 731T236 750Q331 750 370 712T409 583Q409 517 388 485T317 442V438Q368 428 391 384T415 243Q415 148 403 98T356 24T250 0H203Z" />
<glyph unicode="&#xe0;" glyph-name="agrave" horiz-adv-x="425" d="M96 -8T65 24T34 140Q34 198 45 230T84 277T162 291Q191 291 294 286V322Q294 385 286 412T255 448T180 457Q157 457 121 454T59 446V504Q124 518 200 518Q270 518 304 501T352 443T365 323V0H302L298
70H293Q278 23 245 8T166 -8Q96 -8 65 24ZM224 53T246 61T279 98Q294 138 294 205V238H180Q148 238 133 232T111 206T104 145Q104 106 110 87T135 61T189 53Q224 53 246 61ZM193 602L116 738V743H191L245 607V602H193Z" />
<glyph unicode="&#xe1;" glyph-name="aacute" horiz-adv-x="425" d="M96 -8T65 24T34 140Q34 198 45 230T84 277T162 291Q191 291 294 286V322Q294 385 286 412T255 448T180 457Q157 457 121 454T59 446V504Q124 518 200 518Q270 518 304 501T352 443T365 323V0H302L298
70H293Q278 23 245 8T166 -8Q96 -8 65 24ZM224 53T246 61T279 98Q294 138 294 205V238H180Q148 238 133 232T111 206T104 145Q104 106 110 87T135 61T189 53Q224 53 246 61ZM179 602V607L233 743H308V738L231 602H179Z" />
<glyph unicode="&#xe2;" glyph-name="acircumflex" horiz-adv-x="425" d="M96 -8T65 24T34 140Q34 198 45 230T84 277T162 291Q191 291 294 286V322Q294 385 286 412T255 448T180 457Q157 457 121 454T59 446V504Q124 518 200 518Q270 518 304 501T352 443T365
323V0H302L298 70H293Q278 23 245 8T166 -8Q96 -8 65 24ZM224 53T246 61T279 98Q294 138 294 205V238H180Q148 238 133 232T111 206T104 145Q104 106 110 87T135 61T189 53Q224 53 246 61ZM97 605V611L174 743H252L328 611V605H278L213 702L147 605H97Z" />
<glyph unicode="&#xe3;" glyph-name="atilde" horiz-adv-x="425" d="M96 -8T65 24T34 140Q34 198 45 230T84 277T162 291Q191 291 294 286V322Q294 385 286 412T255 448T180 457Q157 457 121 454T59 446V504Q124 518 200 518Q270 518 304 501T352 443T365 323V0H302L298
70H293Q278 23 245 8T166 -8Q96 -8 65 24ZM224 53T246 61T279 98Q294 138 294 205V238H180Q148 238 133 232T111 206T104 145Q104 106 110 87T135 61T189 53Q224 53 246 61ZM353 681T342 658T291 634Q271 634 252 640T206 657Q201 659 187 665T160 675T139 678Q124
678 120 667T116 623H72Q72 685 83 708T134 732Q153 732 173 726T221 708Q239 700 256 694T286 688Q301 688 305 699T309 743H353Q353 681 342 658Z" />
<glyph unicode="&#xe4;" glyph-name="adieresis" horiz-adv-x="425" d="M96 -8T65 24T34 140Q34 198 45 230T84 277T162 291Q191 291 294 286V322Q294 385 286 412T255 448T180 457Q157 457 121 454T59 446V504Q124 518 200 518Q270 518 304 501T352 443T365 323V0H302L298
70H293Q278 23 245 8T166 -8Q96 -8 65 24ZM224 53T246 61T279 98Q294 138 294 205V238H180Q148 238 133 232T111 206T104 145Q104 106 110 87T135 61T189 53Q224 53 246 61ZM91 908V984H159V908H91ZM269 908V984H337V908H269Z" />
<glyph unicode="&#xe5;" glyph-name="aring" horiz-adv-x="425" d="M96 -8T65 24T34 140Q34 198 45 230T84 277T162 291Q191 291 294 286V322Q294 385 286 412T255 448T180 457Q157 457 121 454T59 446V504Q124 518 200 518Q270 518 304 501T352 443T365 323V0H302L298
70H293Q278 23 245 8T166 -8Q96 -8 65 24ZM224 53T246 61T279 98Q294 138 294 205V238H180Q148 238 133 232T111 206T104 145Q104 106 110 87T135 61T189 53Q224 53 246 61ZM165 859T144 868T116 896T110 955Q110 994 116 1013T143 1042T212 1052Q259 1052 281
1043T309 1014T316 955Q316 916 310 897T281 868T212 859Q165 859 144 868ZM238 899T249 903T263 919T266 955Q266 980 263 991T249 1006T212 1011Q187 1011 176 1006T162 991T159 955Q159 930 162 920T176 904T212 899Q238 899 249 903Z" />
<glyph unicode="&#xe6;" glyph-name="ae" horiz-adv-x="676" d="M628 234H365Q365 153 372 117T405 67T487 53Q553 53 614 64V6Q590 0 551 -4T474 -8Q409 -8 374 9T322 67Q301 21 264 7T176 -8Q124 -8 94 5T49 50T34 140Q34 197 45 229T84 274T162 288L294 287V322Q294
386 286 413T255 448T179 457Q154 457 118 454T59 446V504Q126 518 199 518Q253 518 284 506T332 463Q351 492 383 505T470 518Q545 518 578 494T619 419T628 257V234ZM420 458T400 446T373 400T365 287H559V297Q559 370 552 403T526 447T467 458Q420 458 400 446ZM294
235H179Q146 235 131 229T110 204T103 145Q103 106 110 87T134 60T188 52Q226 52 248 62T282 104Q294 141 294 205V235Z" />
<glyph unicode="&#xe7;" glyph-name="ccedilla" horiz-adv-x="351" d="M276 53T317 64V5Q297 -1 268 -4T210 -8H199L160 -190H90V-185L149 -2Q104 8 82 38T54 117T47 255Q47 360 59 414T106 493T208 518Q236 518 266 515T314 505V447Q271 457 224 457Q176 457
155 442T126 386T118 256Q118 165 125 124T155 68T225 53Q276 53 317 64Z" />
<glyph unicode="&#xe8;" glyph-name="egrave" horiz-adv-x="428" d="M380 232H118Q118 151 125 116T157 67T240 53Q306 53 366 64V6Q343 0 303 -4T226 -8Q145 -8 108 15T59 92T47 254Q47 363 57 415T103 493T221 518Q297 518 330 494T371 419T380 255V232ZM173
458T152 446T125 400T118 285H312V297Q312 370 304 403T278 447T220 458Q173 458 152 446ZM200 602L123 738V743H198L252 607V602H200Z" />
<glyph unicode="&#xe9;" glyph-name="eacute" horiz-adv-x="428" d="M380 232H118Q118 151 125 116T157 67T240 53Q306 53 366 64V6Q343 0 303 -4T226 -8Q145 -8 108 15T59 92T47 254Q47 363 57 415T103 493T221 518Q297 518 330 494T371 419T380 255V232ZM173
458T152 446T125 400T118 285H312V297Q312 370 304 403T278 447T220 458Q173 458 152 446ZM190 602V607L244 743H319V738L242 602H190Z" />
<glyph unicode="&#xea;" glyph-name="ecircumflex" horiz-adv-x="428" d="M380 232H118Q118 151 125 116T157 67T240 53Q306 53 366 64V6Q343 0 303 -4T226 -8Q145 -8 108 15T59 92T47 254Q47 363 57 415T103 493T221 518Q297 518 330 494T371 419T380 255V232ZM173
458T152 446T125 400T118 285H312V297Q312 370 304 403T278 447T220 458Q173 458 152 446ZM102 605V611L179 743H257L333 611V605H283L218 702L152 605H102Z" />
<glyph unicode="&#xeb;" glyph-name="edieresis" horiz-adv-x="428" d="M380 232H118Q118 151 125 116T157 67T240 53Q306 53 366 64V6Q343 0 303 -4T226 -8Q145 -8 108 15T59 92T47 254Q47 363 57 415T103 493T221 518Q297 518 330 494T371 419T380 255V232ZM173
458T152 446T125 400T118 285H312V297Q312 370 304 403T278 447T220 458Q173 458 152 446ZM96 908V984H164V908H96ZM274 908V984H342V908H274Z" />
<glyph unicode="&#xec;" glyph-name="igrave" horiz-adv-x="196" d="M63 0V510H134V0H63ZM338 602L261 738V743H336L390 607V602H338Z" />
<glyph unicode="&#xed;" glyph-name="iacute" horiz-adv-x="196" d="M63 0V510H134V0H63ZM63 602V607L117 743H192V738L115 602H63Z" />
<glyph unicode="&#xee;" glyph-name="icircumflex" horiz-adv-x="196" d="M63 0V510H134V0H63ZM239 605V611L316 743H394L470 611V605H420L355 702L289 605H239Z" />
<glyph unicode="&#xef;" glyph-name="idieresis" horiz-adv-x="196" d="M63 0V510H134V0H63ZM232 908V984H300V908H232ZM410 908V984H478V908H410Z" />
<glyph unicode="&#xf0;" glyph-name="eth" horiz-adv-x="441" d="M138 -8T103 14T57 87T47 254Q47 366 56 418T97 494T203 518Q264 518 297 490L301 492Q283 569 252 630L153 614V664L226 675Q200 712 177 739V743H253Q278 715 296 686L379 699V649L323 640Q366
547 382 428Q392 358 392 272Q392 146 383 93T339 16T220 -8Q138 -8 103 14ZM271 52T291 67T317 119T322 254Q322 341 317 379T291 437T220 457Q168 457 148 443T123 392T118 254Q118 156 122 119T147 67T220 52Q271 52 291 67Z" />
<glyph unicode="&#xf1;" glyph-name="ntilde" horiz-adv-x="453" d="M322 298Q322 370 316 401T291 443T232 454Q186 454 165 432T139 373T134 265V0H63V510H125L129 439H135Q147 477 176 497T261 518Q317 518 345 498T383 438T393 322V0H322V298ZM371 681T360
658T309 634Q289 634 270 640T224 657Q219 659 205 665T178 675T157 678Q142 678 138 667T134 623H90Q90 685 101 708T152 732Q171 732 191 726T239 708Q257 700 274 694T304 688Q319 688 323 699T327 743H371Q371 681 360 658Z" />
<glyph unicode="&#xf2;" glyph-name="ograve" horiz-adv-x="439" d="M139 -8T104 13T58 86T47 255Q47 372 57 424T103 497T220 518Q301 518 336 497T382 424T392 255Q392 138 382 86T337 13T220 -8Q139 -8 104 13ZM270 53T290 67T316 119T321 255Q321 353 316
391T291 443T220 457Q169 457 149 443T124 391T118 255Q118 158 123 120T149 67T220 53Q270 53 290 67ZM201 602L124 738V743H199L253 607V602H201Z" />
<glyph unicode="&#xf3;" glyph-name="oacute" horiz-adv-x="439" d="M139 -8T104 13T58 86T47 255Q47 372 57 424T103 497T220 518Q301 518 336 497T382 424T392 255Q392 138 382 86T337 13T220 -8Q139 -8 104 13ZM270 53T290 67T316 119T321 255Q321 353 316
391T291 443T220 457Q169 457 149 443T124 391T118 255Q118 158 123 120T149 67T220 53Q270 53 290 67ZM184 602V607L238 743H313V738L236 602H184Z" />
<glyph unicode="&#xf4;" glyph-name="ocircumflex" horiz-adv-x="439" d="M139 -8T104 13T58 86T47 255Q47 372 57 424T103 497T220 518Q301 518 336 497T382 424T392 255Q392 138 382 86T337 13T220 -8Q139 -8 104 13ZM270 53T290 67T316 119T321 255Q321 353
316 391T291 443T220 457Q169 457 149 443T124 391T118 255Q118 158 123 120T149 67T220 53Q270 53 290 67ZM105 605V611L182 743H260L336 611V605H286L221 702L155 605H105Z" />
<glyph unicode="&#xf5;" glyph-name="otilde" horiz-adv-x="439" d="M139 -8T104 13T58 86T47 255Q47 372 57 424T103 497T220 518Q301 518 336 497T382 424T392 255Q392 138 382 86T337 13T220 -8Q139 -8 104 13ZM270 53T290 67T316 119T321 255Q321 353 316
391T291 443T220 457Q169 457 149 443T124 391T118 255Q118 158 123 120T149 67T220 53Q270 53 290 67ZM361 681T350 658T299 634Q279 634 260 640T214 657Q209 659 195 665T168 675T147 678Q132 678 128 667T124 623H80Q80 685 91 708T142 732Q161 732 181 726T229
708Q247 700 264 694T294 688Q309 688 313 699T317 743H361Q361 681 350 658Z" />
<glyph unicode="&#xf6;" glyph-name="odieresis" horiz-adv-x="439" d="M139 -8T104 13T58 86T47 255Q47 372 57 424T103 497T220 518Q301 518 336 497T382 424T392 255Q392 138 382 86T337 13T220 -8Q139 -8 104 13ZM270 53T290 67T316 119T321 255Q321 353 316
391T291 443T220 457Q169 457 149 443T124 391T118 255Q118 158 123 120T149 67T220 53Q270 53 290 67ZM98 908V984H166V908H98ZM276 908V984H344V908H276Z" />
<glyph unicode="&#xf7;" glyph-name="divide" horiz-adv-x="484" d="M209 388V456H275V388H209ZM62 223V283H422V223H62ZM209 49V118H275V49H209Z" />
<glyph unicode="&#xf8;" glyph-name="oslash" horiz-adv-x="439" d="M354 482Q378 457 385 407T392 255Q392 138 382 86T337 13T220 -8Q165 -8 134 0L109 -55H47L85 28Q61 53 54 103T47 255Q47 372 57 424T103 497T220 518Q276 518 305 510L330 565H392L354 482ZM118
209T119 171T124 113L278 450Q258 457 220 457Q169 457 149 443T124 391T118 255Q118 209 119 171ZM321 301T320 339T315 397L161 59Q178 53 220 53Q270 53 290 67T316 119T321 255Q321 301 320 339Z" />
<glyph unicode="&#xf9;" glyph-name="ugrave" horiz-adv-x="453" d="M323 71H318Q306 33 277 13T192 -8Q136 -8 108 12T70 72T60 188V510H131V212Q131 139 137 108T162 67T221 56Q266 56 287 77T313 136T319 245V510H390V0H327L323 71ZM208 602L131 738V743H206L260
607V602H208Z" />
<glyph unicode="&#xfa;" glyph-name="uacute" horiz-adv-x="453" d="M323 71H318Q306 33 277 13T192 -8Q136 -8 108 12T70 72T60 188V510H131V212Q131 139 137 108T162 67T221 56Q266 56 287 77T313 136T319 245V510H390V0H327L323 71ZM198 602V607L252 743H327V738L250
602H198Z" />
<glyph unicode="&#xfb;" glyph-name="ucircumflex" horiz-adv-x="453" d="M323 71H318Q306 33 277 13T192 -8Q136 -8 108 12T70 72T60 188V510H131V212Q131 139 137 108T162 67T221 56Q266 56 287 77T313 136T319 245V510H390V0H327L323 71ZM110 605V611L187 743H265L341
611V605H291L226 702L160 605H110Z" />
<glyph unicode="&#xfc;" glyph-name="udieresis" horiz-adv-x="453" d="M323 71H318Q306 33 277 13T192 -8Q136 -8 108 12T70 72T60 188V510H131V212Q131 139 137 108T162 67T221 56Q266 56 287 77T313 136T319 245V510H390V0H327L323 71ZM102 908V984H170V908H102ZM280
908V984H348V908H280Z" />
<glyph unicode="&#xfd;" glyph-name="yacute" horiz-adv-x="453" d="M130 -199T75 -193V-135Q129 -138 192 -138Q250 -138 277 -121T311 -68T319 46V66H314Q302 33 274 14T191 -6Q134 -6 107 14T70 77T60 198V510H131V213Q131 141 137 110T161 68T221 58Q266 58
287 79T313 138T319 247V510H390V70Q390 -36 377 -91T325 -173T206 -199Q130 -199 75 -193ZM199 602V607L253 743H328V738L251 602H199Z" />
<glyph unicode="&#xfe;" glyph-name="thorn" horiz-adv-x="450" d="M63 743H134V445H139Q152 485 181 501T257 518Q316 518 347 496T390 419T403 255Q403 148 391 93T348 15T258 -8Q211 -8 182 8T139 62H134V-190H63V743ZM279 56T298 69T325 122T332 255Q332 348
325 388T299 441T232 454Q194 454 173 438T142 384Q134 347 134 255Q134 165 141 136Q150 92 171 74T232 56Q279 56 298 69Z" />
<glyph unicode="&#xff;" glyph-name="ydieresis" horiz-adv-x="453" d="M130 -199T75 -193V-135Q129 -138 192 -138Q250 -138 277 -121T311 -68T319 46V66H314Q302 33 274 14T191 -6Q134 -6 107 14T70 77T60 198V510H131V213Q131 141 137 110T161 68T221 58Q266
58 287 79T313 138T319 247V510H390V70Q390 -36 377 -91T325 -173T206 -199Q130 -199 75 -193ZM102 908V984H170V908H102ZM280 908V984H348V908H280Z" />
<glyph unicode="&#x2013;" glyph-name="endash" horiz-adv-x="427" d="M55 274V334H373V274H55Z" />
<glyph unicode="&#x2014;" glyph-name="emdash" horiz-adv-x="824" d="M55 274V334H769V274H55Z" />
<glyph unicode="&#x2018;" glyph-name="quoteleft" horiz-adv-x="176" d="M45 566Q45 617 52 642T80 677T144 688V654Q111 654 102 642T93 590V573H125V486H45V566Z" />
<glyph unicode="&#x2019;" glyph-name="quoteright" horiz-adv-x="176" d="M65 520T74 532T83 584V601H50V688H130V608Q130 556 123 532T96 497T32 486V520Q65 520 74 532Z" />
<glyph unicode="&#x201a;" glyph-name="quotesinglbase" horiz-adv-x="191" d="M60 -81T70 -76T83 -57T87 -17V0H55V87H135V7Q135 -44 128 -69T101 -104T37 -115V-81Q60 -81 70 -76Z" />
<glyph unicode="&#x201c;" glyph-name="quotedblleft" horiz-adv-x="313" d="M45 566Q45 617 52 642T80 677T144 688V654Q111 654 102 642T93 590V573H125V486H45V566ZM183 566Q183 617 190 642T217 677T281 688V654Q248 654 239 642T230 590V573H263V486H183V566Z" />
<glyph unicode="&#x201d;" glyph-name="quotedblright" horiz-adv-x="313" d="M65 520T74 532T83 584V601H50V688H130V608Q130 556 123 532T96 497T32 486V520Q65 520 74 532ZM202 520T211 532T220 584V601H188V688H268V608Q268 557 261 532T234 497T170 486V520Q202
520 211 532Z" />
<glyph unicode="&#x201e;" glyph-name="quotedblbase" horiz-adv-x="329" d="M60 -81T70 -76T83 -57T87 -17V0H55V87H135V7Q135 -44 128 -69T101 -104T37 -115V-81Q60 -81 70 -76ZM207 -81T216 -69T225 -17V0H193V87H273V7Q273 -44 266 -69T238 -104T174 -115V-81Q207
-81 216 -69Z" />
<glyph unicode="&#x2022;" glyph-name="bullet" horiz-adv-x="298" d="M239 299T234 282T211 259T147 253Q104 253 87 259T64 282T59 342Q59 386 64 403T86 427T147 434Q192 434 210 428T234 404T239 342Q239 299 234 282Z" />
<glyph unicode="&#x2039;" glyph-name="guilsinglleft" horiz-adv-x="231" d="M126 103L30 306L126 510H178L97 306L178 103H126Z" />
<glyph unicode="&#x203a;" glyph-name="guilsinglright" horiz-adv-x="231" d="M52 103L133 306L52 510H104L201 306L104 103H52Z" />
</font>
</defs>
</svg>
